Main

raw download clone embed print report. [swscaler @ 0x8b48510]No accelerated colorspace conversion found from yuv420p to bgra. good. [mp3 @ 0x8ae5800]Header missing. Last message repeated 223 times. [mp3 @ 0x8af31c0]Could not find codec parameters (Audio: mp1, 0 channels, s16) [mp3 @ 0x8af31c0]Estimating duration from bitrate, this may be ...I have a 4800x2700 H.265 video in 8-bit yuvj420p colorspace. FFprobe says: Stream #0:0(eng): Video: hevc (Main) (hvc1 / 0x31637668), yuvj420p(pc, bt709), 4800x2700... Now, I want to downscale it to 1920p and convert it to yuv420p, which is apparently the most compatible pixel format across different devices. when i set format to yuv4mpegpipe with codec wrapped_avframe and add pix_fmt=yuv420p to other and save it as export preset it still makes yuv422p file, it works when i manually add pix_fmt=yuv420p everytime i export pi…yuv420p is a common 8-bit and yuv420p10le a 10-bit pixel format. The library libx264 supports both, but you cannot combine 8-bit and 10-bit in the same command, you need two commands. By default the library libx264 will use the chroma subsampling scheme that matches closest the input file’s chroma subsampling. NVIDIA provides software API and libraries for programming NVDEC. The software API, hereafter referred to as NVDECODE API lets developers access the video decoding features of NVDEC and interoperate NVDEC with other engines on the GPU. NVDEC decodes the compressed video streams and copies the resulting YUV frames to video memory.Video Drivers. This table shows the various Video driver modules and which pixel formats they support. New pixel formats can be added at any time. Modules in alphabetical order. video source. YUV420P. YUV444P.Why does FFmpeg decode a raw YUV420p video?Helpful? Please support me on Patreon: https://www.patreon.com/roelvandepaarWith thanks & praise to God, and with...Go/click home screen on the tv then go down to setting then go to external inputs then HDMI signal format. Enable the port that is connecting to the PS4 pro. the tv will restart. Then go to the ps4 pro setting display and you will see 2160p RGB no longer greyed out. then set the resolution to auto. Your display will show 2160p RGB and 2k/4k HDR.Hello! I'm currently trying to add AVC444 format support for FreeRDP client. The specification is a bit unclear on how to combine the two YUV420 views to one YUV444 view. * The formulae for B4-B7 have fixed x and y limits. Should that mean width and height (and the half versions of those) * Are ... · Hi Akallabeth, Thank you for contacting the ...YUV is a class of pixel formats used in video applications, including VLC media player . YUV is actually the name of the color space that is common to all "YUV" pixel formats.return false; } And use it like this (in this example is used to downscale, but you. can use it for rescaling and or pixel format conversions) // Downscale. AVPicture src; int iWidth = m_ptCurrentVideoMode->getWidth () / DL_LOW_DEFINITION_DEN; int iHeight = (m_ptCurrentVideoMode->getHeight () * iWidth) /. sam club near metft commands arduinopercent20 Aug 14, 2017 · 将yuv420p转换成bgr24,然后再转换到yuv420p,会有一定的损失,转换的后的yuv与原始yuv会有1~5个像素值的差异 。 THE END! 本博文只能阅读,谢绝转载,欢迎指出任何有错误或不够清晰的表达。 分离YUV420P像素数据中的Y、U、V分量 本文开始参考雷神雷霄骅的文章,开始自已写代码学习。 在学习之前,先准备好一张YUV图片。 从网上下载一张 720x480 的 jpg 图片,通过 ffmpeg.exe 工具,将其转换成YUV420P 格式的图片。 JPG转YUV420P命令:ffmpeg -i# include " VideoJpg.h " VideoJPG::VideoJPG () { sws_ctx = NULL; de_frame = NULL; en_frame = NULL; in_fmt = NULL; ou_fmt = NULL; de_ctx = NULL; en_ctx = NULL ...yuv420p is a common 8-bit and yuv420p10le a 10-bit pixel format. The library libx264 supports both, but you cannot combine 8-bit and 10-bit in the same command, you need two commands. By default the library libx264 will use the chroma subsampling scheme that matches closest the input file’s chroma subsampling. Also this was all done on the same computer, same graphics card, same everything except the export settings in Premiere. Edit: by which I mean the difference between exporting a file that is yuv420p and exporting a file that is yuv420p tv is that one is the result of exporting with hardware encoding and the other is the result of exporting using software encoding.Speed. With ffmpeg and a decent GPU (like a Quadro P4000) the h265/HEVC encoder finaly gets a good speedboost with up to 90fps when encoding HD movies with the below parameter values and 200fps when using the GPU accelerated h264 encoder. This speed is achieved with a Quadro P4000 from NVidia when encoding 1920×1080 movies with -preset slow.http://en.wikipedia.org/wiki/Chroma_subsampling In particular, YUV420 means that the U and V channels have half the resolution of the luma (Y) channel, in the horizontal and vertical directions. The sampling method usually present in low to medium quality JPEG images is YCrCb420 (high quality JPEGs are usually YCrCb444 (no subsampling). ShareEach unique Y, U and V value comprises 8 bits, or one byte, of data. Where supported, our color camera models allow YUV transmission in 24-, 16-, and 12-bit per pixel (bpp) format. In 16 and 12 bpp formats, the U and V color values are shared between pixels, which frees bandwidth and may increase frame rate. Known as "chroma subsampling ...Because, we are using the yuv420p pixel format where the U and V planes are half the height and width of the Y plane.) number of frames = 1237 (I used ffprobe to get this number) it uses 8 bits to represent each pixel of video. i.e., 8 bpp Let's calculate the number of pixels in a single YUV frame -Using FFmpeg with NVIDIA GPU Hardware Acceleration vDA-08430-001_v02 | 1 Chapter 1. Introduction All NVIDIA® GPUs starting with Kepler generation support fully-accelerated hardware video encoding and decoding. The hardware encoder and hardware decoder are referred to as NVENCThe other thread was specifically 4k h.264 video (which is an unusualy combination). Pi4 will play 1080p h.264 and 4k hevc video (which your files appear to be).How to convert YUV420 to RGB in OpenCV? Stats. Asked: 2016-07-01 00:56:06 -0500 Seen: 3,922 times Last updated: Jul 01 '16This article covers all the tunerless USB 2.0 video and audio capture devices which are based on the STK1160 chip from Syntec Semiconductor.co.ltd.. This device is convenient for capturing from cameras, VHS-tapes, receivers ... and even for small surveillance installation (4 inputs model). Many but not all of these devices are branded as Easycap. I420 yuv pixel format. These formats are identical to YV12 except that the U and V plane order is reversed. They comprise an NxN Y plane followed by (N/2)x (N/2) U and V planes. Full marks to Intel for registering the same format twice and full marks to Microsoft for not picking up on this and rejecting the second registration.Set OBS Studio Settings>Video>Output (Scaled) Resolution to the test chart resolution [1920x1080] Add 'Image Source' to the scene. Select downloaded test chart as input image. Make sure that image positioned at the top left corner of the OBS Studio Preview window. Make recording or streaming.If you want a one-liner for FFMPEG that generates a video that plays at 1 frame per second, what you want to do is specify framerates for both input and output, like this: ffmpeg -r 1 -i data/input-%4d.png -pix_fmt yuv420p -r 10 data/output.mp4. The -r 1 means the video will play at 1 of the original images per second.Video Drivers. This table shows the various Video driver modules and which pixel formats they support. New pixel formats can be added at any time. Modules in alphabetical order. video source. YUV420P. YUV444P.Use yuv420p. There is no such thing as yuv480p or yuv720p because it is not tied to the video height. yuv420p is a chroma subsampling scheme, and the p stands for planar, not progressive.In ffmpeg yuv420p is called a pixel format.. You can use the format filter, or the legacy -pix_fmt option, to set the pixel format. Example: ffmpeg -i input.mp4 -vf format=yuv420p output.mp4You can easily convert a video for iPhones and older iPods using this command: ffmpeg -i source_video.avi input -acodec aac -ab 128kb -vcodec mpeg4 -b 1200kb -mbd 2 -flags +4mv+trell -aic 2 -cmp 2 -subcmp 2 -s 320x180 -title X final_video.mp4. Explanations : Source : source_video.avi. Audio codec : aac. apartments for rent yuma In this short article, I follow the main steps of video transcoding and optimization for the web. I share basic tips and examples to consistently automate these processes inhouse using FFmpeg, a…No matter these, in the end ffprobe always shows it's not anymore in yuvj420p but in yuv420p (or what should be another 8-bit color space format). This results in washed out colors visible on HDR monitors (barely noticeable on older monitors). Similar questions without good answers yet: Lossless compression for video with audioWhat is a FOURCC? Definition of what FOURCC means and how it is used. Video Codecs: A list of FOURCCs identifying various video codecs. FOURCC identifierVideo Drivers. This table shows the various Video driver modules and which pixel formats they support. New pixel formats can be added at any time. Modules in alphabetical order. video source. YUV420P. YUV444P.Why does FFmpeg decode a raw YUV420p video?Helpful? Please support me on Patreon: https://www.patreon.com/roelvandepaarWith thanks & praise to God, and with...Apr 09, 2014 · yuv420p 与yuvj420p转换为RGB565. 在android中用接收h264 rtp流,并用ffmpeg解码。. 使用网上的库DisplayYUV_16把yuv420p的数据转换到RGB565后,在手机上显示。. 但是今天用一个新的数据源,decod完成,但在转换为RGB565时,出现异常。. 检查发现新数据decod后的fmt是yuvj420p,而老数据 ... Imageio Usage Examples. #. Some of these examples use Visvis to visualize the image data, but one can also use Matplotlib to show the images. Imageio provides a range of example images , which can be used by using a URI like 'imageio:chelsea.png'. The images are automatically downloaded if not already present on your system.YUV is a color model typically used as part of a color image pipeline. It encodes a color image or video taking human perception into account, allowing reduced bandwidth for chrominance components, compared to a "direct" RGB -representation.Laapata-EkThaTiger(2012)-1080pHD Genre:Romance,Thriller StarCast:SalmanKhan,KatrinaKaif MusicDirector:SohailSen Producer:AdityaChopra Director:KabirKhanTo upload designs, you'll need to enable LFS and have an admin enable hashed storage. More informationSpeed. With ffmpeg and a decent GPU (like a Quadro P4000) the h265/HEVC encoder finaly gets a good speedboost with up to 90fps when encoding HD movies with the below parameter values and 200fps when using the GPU accelerated h264 encoder. This speed is achieved with a Quadro P4000 from NVidia when encoding 1920×1080 movies with -preset slow. stack and still What Is H.264? This is an installment in our ongoing series of "What Is...?" articles, designed to offer definitions, history, and context around significant terms and issues in the online video industry.Executive Summary. H.264 is the most widely used codec on the planet, with significant penetration in optical disc, broadcast, and streaming video markets.YUVJ420P对应的是显示器。. 灰阶. 何谓灰阶?. 通常来说,液晶屏幕上人们肉眼所见的一个点,即一个像素,它是由红、绿、蓝 (RGB)三个子像素组成的。. 每一个子像素,其背后的光源都可以显现出不同的亮度级别。. 而灰阶代表了由最暗到最亮之间不同亮度的层次 ....\vcpkg integrate install PS D:\workspace\YUV420P_Player\vcpkg> .\vcpkg integrate install Applied user-wide integration for this vcpkg root. All MSBuild C++ projects can now #include any installed libraries.thing to do. But so could be setting yuv420p in yuv4_write_header. But then, again, IMHO the right thing to do is to check for yuv420p in yuv4_write_header and quit if it isn't so. On the OS/X system though adding -pix_fmt option only slightly pix_fmt=yuvj420p is stable, but you should also add mlt_image_format=rgb24. RGB (in the context of Shotcut and its libraries) are full range. Even though a filter might need to convert to limited MPEG/broadcast range to do its processing, it will expand back to full range in RGB.YUV color-spaces are a more efficient coding and reduce the bandwidth more than RGB capture can. Most video cards, therefore, render directly using YUV or luminance/chrominance images. The most important component for YUV capture is always the luminance, or Y component. For this reason, Y should have the highest sampling rate, or the same rate ...Hello, I would like to ask what is the actual color format of yuv420p as used with ffmpeg in pixel_format option. I have captured video with V4L2_PIX_FMT_YUV420 format (described inYou can easily convert a video for iPhones and older iPods using this command: ffmpeg -i source_video.avi input -acodec aac -ab 128kb -vcodec mpeg4 -b 1200kb -mbd 2 -flags +4mv+trell -aic 2 -cmp 2 -subcmp 2 -s 320x180 -title X final_video.mp4. Explanations : Source : source_video.avi. Audio codec : aac.I separately constructed a QVideoSurfaceFormat for correct size and Format_YUV420P and passed as argument. Else, if I set correct format which is YUV bypassing the check of image format before initializing surface I get a QVideoFrame with Format_YUV420P in the "bool present (const QVideoFrame &frame);" function.Also this was all done on the same computer, same graphics card, same everything except the export settings in Premiere. Edit: by which I mean the difference between exporting a file that is yuv420p and exporting a file that is yuv420p tv is that one is the result of exporting with hardware encoding and the other is the result of exporting using software encoding.This file contains bidirectional Unicode text that may be interpreted or compiled differently than what appears below. To review, open the file in an editor that reveals hidden Unicode characters.File list. [Ruimusume-Raws] Xenoblade2 - 06 - 第六話 傷 (1920x1080 HEVC-YUV420P).mp4 (5.7 GiB) SuperbiSqu. 1 year 8 months 2 weeks 2 days 20 hours 57 minutes 30 seconds ago. Someone can seed, please?Most immersive video content made for VR is encoded either for local ("sideloaded") playback, or for uploading to VR video streaming platforms like Oculus Media Studio and YouTube VR.. There is an article on the Oculus blog that discusses how to encode high-resolution 360 and 180 videos for playback in Oculus Quest and Go (disclosure: I wrote it). ). However, if you're encoding immersive ...You can easily convert a video for iPhones and older iPods using this command: ffmpeg -i source_video.avi input -acodec aac -ab 128kb -vcodec mpeg4 -b 1200kb -mbd 2 -flags +4mv+trell -aic 2 -cmp 2 -subcmp 2 -s 320x180 -title X final_video.mp4. Explanations : Source : source_video.avi. Audio codec : aac.Go/click home screen on the tv then go down to setting then go to external inputs then HDMI signal format. Enable the port that is connecting to the PS4 pro. the tv will restart. Then go to the ps4 pro setting display and you will see 2160p RGB no longer greyed out. then set the resolution to auto. Your display will show 2160p RGB and 2k/4k HDR.Why does FFmpeg decode a raw YUV420p video?Helpful? Please support me on Patreon: https://www.patreon.com/roelvandepaarWith thanks & praise to God, and with... sinif turkceoakland gardens ny Calculate the bitrate you need by dividing your target size (in bits) by the video length (in seconds). For example for a target size of 1 GB (one giga byte, which is 8 giga bits) and 10 000 seconds of video (2 h 46 min 40 s), use a bitrate of 800 000 bit/s (800 kbit/s): ffmpeg -i input.mp4 -b 800k output.mp4.GHOV-12 秘経穴破壊ドミネーション スパンデクサー・コスモエンジェル デッドフェイス編 Rui Negoto. GHOV-12 Domination for Destruction of Secret Acupuncture Points -Spandexer Cosmo Angel Dead Face Part. Rui Negoto. File: GHOV12_01.mp4. Size: 740021463 bytes (705.74 MiB), duration: 00:32:24, avg.bitrate: 3045 kb/s.Speed. With ffmpeg and a decent GPU (like a Quadro P4000) the h265/HEVC encoder finaly gets a good speedboost with up to 90fps when encoding HD movies with the below parameter values and 200fps when using the GPU accelerated h264 encoder. This speed is achieved with a Quadro P4000 from NVidia when encoding 1920×1080 movies with -preset slow.CoreEL offers high performance, high quality and robust H.264 video decoding solutions on FPGAs for professional / Broadcast video applications. CoreEL H.264hand-coded RTL code is highly optimized for FPGA architecture delivering higher performance at lower clock speed and smaller memory footprint. Figure 1 Video Decoding System.Oct 29, 2018 · YUV420sp与YUV420p的数据格式区别在于UV排列上的完全不同。420p它是先把U存放完后,再存放V,如下图。而420sp它是UV、UV这样交替存放的。 有了上面的理论,我就可以准确的计算出一个YUV420在内存中存放的大小。 This article covers all the tunerless USB 2.0 video and audio capture devices which are based on the STK1160 chip from Syntec Semiconductor.co.ltd.. This device is convenient for capturing from cameras, VHS-tapes, receivers ... and even for small surveillance installation (4 inputs model). Many but not all of these devices are branded as Easycap. VP9 HDR Encoding. High Dynamic Range (HDR) video is a maturing technology. There are today a number of gradually-harmonizing standards. For a maintained picture of HDR video evolution see the WikiPedia article High-dynamic-range video. FFmpeg can be used along with VP9 to both (1) compress HDR sources to Standard Dynamic Range (SDR) outputs or (2) to repackage an HDR source into HDR web ...Incompatible pixel format 'yuv420p' for codec 'h264_qsv', auto-selecting format 'nv12' [mp4 @ 00000000022e3b00] Using AVStream.codec to pass codec parameters to muxers is deprecated, use AVStream.codecpar instead.Chroma subsampling is the practice of encoding images by implementing less resolution for chroma information than for luma information, taking advantage of the human visual system's lower acuity for color differences than for luminance.. It is used in many video and still image encoding schemes - both analog and digital - including in JPEG encoding.Jul 07, 2020 · mov to mp4. In DaVinci Resolve 16 I export my videos with mov format and then convert them to youtube ready mp4 with this command: ffmpeg -i input.mov -vf yadif -codec:v libx264 -crf 1 -bf 2 -flags +cgop -pix_fmt yuv420p -codec:a aac -strict -2 -b:a 384k -r:a 48000 -movflags faststart output.mp4. rhoda derryflat for rent in birmingham Kdenlive offers many different preset rendering profiles to choose from. The rendering profiles are grouped into categories. See picture Above. File Rendering - earlier Versions. The following figures show the render dialog when the Destination category is File Rendering.The first two figures show the layout of the dialog under ver 0.9.10 of Kdenlive and the third figure shows how the dialog ...Aug 14, 2017 · 将yuv420p转换成bgr24,然后再转换到yuv420p,会有一定的损失,转换的后的yuv与原始yuv会有1~5个像素值的差异 。 THE END! 本博文只能阅读,谢绝转载,欢迎指出任何有错误或不够清晰的表达。 A movie file output provides a complete file recording interface for writing media data to QuickTime movie files. It includes the ability to configure QuickTime-specific options, including writing metadata collections to each file, specify media encoding options for each track, and specify the interval at which it writes movie fragments.What is transcode density? This metric is the number of streams which can be transcoded concurrently while maintaining a specified frames per second (FPS) throughput.I recently received an email from Mike Perry thoroughly explaining this whole issue. For the definitive answer, please look here. If you want my original posting, here it is…I have a 4800x2700 H.265 video in 8-bit yuvj420p colorspace. FFprobe says: Stream #0:0(eng): Video: hevc (Main) (hvc1 / 0x31637668), yuvj420p(pc, bt709), 4800x2700... Now, I want to downscale it to 1920p and convert it to yuv420p, which is apparently the most compatible pixel format across different devices. Jul 04, 2017 · yuvj420p的字面含义是“使用了jpeg颜色范围的yuv420p,像素使用表示颜色的数值范围发生了变化。 yuv420p的像素颜色范围是[16,235],16表示黑色,235表示白色 yuvj420p的像素颜色范围是[0,255]。0表示黑色,255表示白色 从这里来看,貌似是yuvj420p表示的更准确一下。 区别的 ... Create a memoryview object to a contiguous chunk of memory (in either 'C' or 'F'ortran order) from an object that defines the buffer interface. If memory is contiguous, the memoryview object points to the original memory. Otherwise, a copy is made and the memoryview points to a new bytes object. int PyMemoryView_Check ( PyObject * obj) ¶.Set OBS Studio Settings>Video>Output (Scaled) Resolution to the test chart resolution [1920x1080] Add 'Image Source' to the scene. Select downloaded test chart as input image. Make sure that image positioned at the top left corner of the OBS Studio Preview window. Make recording or streaming.On Wed, 2010-02-24 at 11:54 +0100, Thibault Jochem wrote: Hi, > I'm working with an YUV buffer taken from a fake sink, and I have some > troubles to find the right data alignment. > > For "standard" resolution, it's ok, but with Big Buck Bunny 480p for > example, which is 854x480 there is some kind of alignment : > > I figured out that for U and V buffer, each row is aligned to > even-numbered ...HDHomeRun App - Windows 10 / XBox One (20210526) * Prompt to install specific codecs as needed. * Improve support for radio/music channels that feature a slideshow.HDHomeRun App - Windows 10 / XBox One (20210526) * Prompt to install specific codecs as needed. * Improve support for radio/music channels that feature a slideshow.Generally speaking, YUV is an analog format and YCbCr is a digital format. ffmpeg and SDL both refer to YCbCr as YUV in their code and macros. is a way of storing raw image data like RGB. Roughly speaking, Y is the brightness (or "luma") component, and U and V are the color components. (It's more complicated than RGB because some of the color ...Set OBS Studio Settings>Video>Output (Scaled) Resolution to the test chart resolution [1920x1080] Add 'Image Source' to the scene. Select downloaded test chart as input image. Make sure that image positioned at the top left corner of the OBS Studio Preview window. Make recording or streaming.FFmpeg で エンコード. ffmpeg -i input.mp4 -vf "scale=oh*a:720" -movflags +faststart -pix_fmt yuv420p -c:v libx264 -crf 20 "output.mp4". リサイズしたい動画を縦幅に合わせたい場合、縦幅のサイズが720pxの場合、scale=-1:720のように記述します。. -1:720で縦幅720px、横幅を アスペクト比 を ...ffmpeg Commands. Here is a collection of useful ffmpeg commands for converting image stacks to mp4s. The basic command should look like this: ffmpeg -i frame_%5d.png -vcodec libx264 -pix_fmt yuv420p out.mp4. Where -i frame_%5d.png specifies the file pattern for the image stack. In this case the files have a 5 digit integer padded with zeros (i ...That's almost fine for videos that are going to be played back on a desktop (depending on player support etc), but means that the majority of mobile devices will not play the content back. It's therefore essential to convert to YUV420 before publishing. This snippet details how to do that using FFMPEG.HDHomeRun App - Windows 10 / XBox One (20210526) * Prompt to install specific codecs as needed. * Improve support for radio/music channels that feature a slideshow. mushoku tensei mangamgb dunlop wheels What is transcode density? This metric is the number of streams which can be transcoded concurrently while maintaining a specified frames per second (FPS) throughput.Incompatible pixel format 'yuv420p' for codec 'mjpeg', auto-selecting format 'yuvj420p' Adding filter to convert pixel format from yuv420p to yuvj420p solved the problem, but since ffmpeg version n2.1 there is a new problem reported: [swscaler @ 0xb12fea0] deprecated pixel format used, make sure you did set range correctly Was still fast in ...Incompatible pixel format 'yuv420p' for codec 'h264_qsv', auto-selecting format 'nv12' [mp4 @ 00000000022e3b00] Using AVStream.codec to pass codec parameters to muxers is deprecated, use AVStream.codecpar instead.The following command reads file input.mp4 and transcodes it to output.mp4 with H.264 video at 720p resolution and with the same audio codec. The following command uses the built in resizer in cuvid decoder. ffmpeg -y -vsync 0 -hwaccel cuda -hwaccel_output_format cuda -resize 1280x720 -i input.mp4 -c:a copy -c:v h264_nvenc -b:v 5M output.mp4OpenCV provides a real-time optimized Computer Vision library, tools, and hardware. It also supports model execution for Machine Learning (ML) and Artificial Intelligence (AI).What Is H.264? This is an installment in our ongoing series of "What Is...?" articles, designed to offer definitions, history, and context around significant terms and issues in the online video industry.Executive Summary. H.264 is the most widely used codec on the planet, with significant penetration in optical disc, broadcast, and streaming video markets.Hi there, I am currently investigating a Problem with hardware decoding on our hardware (Intel Atom E3930). If I want to show a rtsp stream with pixelformat yuv420p the hardware decoding seems to work correctly (there is a low cpu usage with top)Entonces, la tasa de bits es un poco más alta de lo que usaría en mi aplicación, pero es yuv420p, que es clave. Esto es lo que obtengo cuando exporto usando codificación de software (creo que 2 pases): Mucho más manejable, pero como puede ver es yuv420p (tv, bt709). El uso de yuv420p tv limita el rango de datos para que muestre algo como ...The purpose of the renderer function is to take a list of image files and assemble them into an animation. gganimate provide a range of renderers but it is also possible to provide your own, if the supplied ones are lacking in any way. A renderer is given as argument to animate () /print () and receives the paths to the individual frames once ...Dec 17, 2016 · About Kodi. Kodi is a free and open source media player application developed by the XBMC Foundation, a non-profit technology consortium. Kodi is available for multiple operating-systems and hardware platforms, featuring a 10-foot user interface for use with televisions and remote controls. What is a FOURCC? Definition of what FOURCC means and how it is used. Video Codecs: A list of FOURCCs identifying various video codecs. FOURCC identifierWe suggest call NvBufferTransform () for the conversion. It is done on the hardware converter VIC. If you use CUDA the loading is moved to GPU. If you would like to move the conversion to GPU, there is no existing sample for YUV422 to YUV420 conversion. Some samples for converting to BGR/RGBA:Kdenlive offers many different preset rendering profiles to choose from. The rendering profiles are grouped into categories. See picture Above. File Rendering - earlier Versions. The following figures show the render dialog when the Destination category is File Rendering.The first two figures show the layout of the dialog under ver 0.9.10 of Kdenlive and the third figure shows how the dialog ...I420 yuv pixel format. These formats are identical to YV12 except that the U and V plane order is reversed. They comprise an NxN Y plane followed by (N/2)x (N/2) U and V planes. Full marks to Intel for registering the same format twice and full marks to Microsoft for not picking up on this and rejecting the second registration.av_reduce(&sw, &sh, avctx->sample_aspect_ratio.num, avctx->sample_aspect_ratio.den, 4096);The AYUV format, which is a 4:4:4 format, uses 8 bits each for the Y, U, and V samples. YUV can also be defined using more than 8 bits per sample for some applications. Two dominant YUV conversions from RGB have been defined for digital video. Both are based on the specification known as ITU-R Recommendation BT.709.On Wed, 2010-02-24 at 11:54 +0100, Thibault Jochem wrote: Hi, > I'm working with an YUV buffer taken from a fake sink, and I have some > troubles to find the right data alignment. > > For "standard" resolution, it's ok, but with Big Buck Bunny 480p for > example, which is 854x480 there is some kind of alignment : > > I figured out that for U and V buffer, each row is aligned to > even-numbered ...pix_fmt=yuvj420p is stable, but you should also add mlt_image_format=rgb24. RGB (in the context of Shotcut and its libraries) are full range. Even though a filter might need to convert to limited MPEG/broadcast range to do its processing, it will expand back to full range in RGB.Support for YUV420P? Magick++ is an object-oriented C++ interface to ImageMagick. Use this forum to discuss, make suggestions about, or report bugs concerning Magick++. cisco call transfertea cup yorkie puppy for sale yuv420p is a common 8-bit and yuv420p10le a 10-bit pixel format. The library libx264 supports both, but you cannot combine 8-bit and 10-bit in the same command, you need two commands. By default the library libx264 will use the chroma subsampling scheme that matches closest the input file’s chroma subsampling. .\vcpkg integrate install PS D:\workspace\YUV420P_Player\vcpkg> .\vcpkg integrate install Applied user-wide integration for this vcpkg root. All MSBuild C++ projects can now #include any installed libraries.About Kodi. Kodi is a free and open source media player application developed by the XBMC Foundation, a non-profit technology consortium. Kodi is available for multiple operating-systems and hardware platforms, featuring a 10-foot user interface for use with televisions and remote controls.Create a memoryview object to a contiguous chunk of memory (in either 'C' or 'F'ortran order) from an object that defines the buffer interface. If memory is contiguous, the memoryview object points to the original memory. Otherwise, a copy is made and the memoryview points to a new bytes object. int PyMemoryView_Check ( PyObject * obj) ¶.Premium publishers must meet the following criteria: Be verified. Publish brand-safe content according to Safe For Ads content guidelines. Be an active Twitter video publisher. Accept the Amplify Publisher Program Terms & Conditions. These eligibility requirements ensure that brands can reach their target audience while aligning with premium ...I am trying to transcode a H264 video from default/YUV420P format to NV12 pixel format. I tried running the sample multi transcode as below. Transcoding says success but when i ffprobe output1.h264, I see YUV420P as pixel format. Request the team for guidance. sample_multi_transcode -i::h264 output.h264 -ec::nv12 -dc::nv12 -o::h264 output1.h264.1. wavefrontParallelProcessing. true. weightPredictionOnBSlice. false. weightPredictionOnPSlice. true. - means that the default value of the codec configuration is used. Please see the API reference for the respective value.Developer Portal. Nokia APIs. Help building the digital world of tomorrow with APIs and SDKs across Nokia's vast product portfolio: from the cutting edge VR products of OZO, health device product, IoT platforms, Cloud infrastructure solutions, to the rich suite of communication networks products. We make Nokia APIs accessible to everyone along ... ffmpeg -i blue.png -vf scale=out_color_matrix=bt709:flags=full_chroma_int+accurate_rnd,format=yuv420p yuv420p_709.yuv Originally Posted by colibri I wish to use a color pattern to verify what color space is using in android camera captured YUV, so try to use a simple sample and need to know which output will be BT.601 or BT.709.tl;dr: If you don't want to do the work by hand on the command line, use FastFlix.If you have any issues, reach out on discord or open a github issue.. I talked about this before with my encoding setting for handbrake post, but there is was a fundamental flaw using Handbrake for HDR 10-bit video….it only has had a 8-bit internal pipeline!It and most other GUIs don't yet support dynamic ...It can be very time consuming to re-encode the correct stream. FFmpeg can help with this situation: ffmpeg -i input.webm -c:v copy -c:a flac output.mkv. This command copies the video stream from input.webm into output.mkv and encodes the Vorbis audio stream into a FLAC. The -c flag is really powerful.ffmpeg -r 1/5 -i img%03d.png -c:v libx264 -r 30 -pix_fmt yuv420p output.mp4. 25. Convert a Single Image Into a Video. Since video is composed of frames of images, it is possible to convert a single image into a video file with FFmpeg. Use the -t parameter to specify the duration of the video. You can also add other parameters as in the ...I am using v4l2loopback v0.12.5 and wf-recorder to record my screen on wayland. I am looking to reduce the framerate of the video stream as read by my browser. Currently I am unable to get anything other than 60fps.Please provide your failing command line together with complete, uncut console output (if the problem is reproducible without using external libraries, please do not use them) and please provide (or point to) a sample.Member. Oct 13, 2016. #5. under video settings change from nv12 to rgb (you have ether 4:2:0, 4:4:4 or rgb here, no 4:2:2 so if you want to have 4:2:2 you have to convert by yourself) the under output settings use avdvanced, Recording-Type use custom output (ffmpeg) container format mkv or mp4. video encoder libx264.That command reports: encoder : Lavf57.83.100 ,... Video: h264 (libx264) ... yuv420p (pc, progressive). But ffplay out.mov complains "deprecated pixel format used, make sure you did set range correctly." ffprobe out.mov agrees that the result is yuvj420p, not my requested yuv420p. Even diff reports that the result is bitwise identical to that ...+ x4->params.i_bitdepth = av_pix_fmt_desc_get(avctx->pix_fmt)->comp[0].depth;Video: MPEG4 Video (H264) 720x400 25fps [V: English [eng] (h264 main L4.0, yuv420p, 720x400) [default]] Audio: AAC 44100Hz stereo [A: aac lc, 44100 Hz, stereo [default]] MPEG4 Video is the same codec that may be used with MP4 file format! It means we could convert ("repack") the file to just different container format, rewriting streams as-is ... weekday power biinner peace quotes funny Welcome to yuvio, a python package for reading and writing uncompressed yuv image and video data.yuvio supports many pixel formats specified by ffmpeg. And if it doesn't, it's fast and easy to add support for your own pixel formats. Install. yuvio is easily installed using python's pip package manager.. pip install yuvio Usage. To read and write yuv files, yuvio provides the functions imread ...This file contains bidirectional Unicode text that may be interpreted or compiled differently than what appears below. To review, open the file in an editor that reveals hidden Unicode characters.yuvj420p的字面含义是"使用了jpeg颜色范围的yuv420p,像素使用表示颜色的数值范围发生了变化。 yuv420p的像素颜色范围是[16,235],16表示黑色,235表示白色 yuvj420p的像素颜色范围是[0,255]。0表示黑色,255表示白色. 从这里来看,貌似是yuvj420p表示的更准确一下。 区别 ...Why does FFmpeg decode a raw YUV420p video?Helpful? Please support me on Patreon: https://www.patreon.com/roelvandepaarWith thanks & praise to God, and with...Pretty much the description. So using ffmpeg. If you have a yuvj420p video, in my case 5k HEVC, but I think h264 would also produce this problem, and you scale it using scale_npp filter, then encode it as h264, both sides using the NVENC/DEC you get a green video. If you use the NVDEC resize filter -resize, without scale_npp, the right video is produced. I think this is some bug in scale_npp ...But for YUV420 we remove half of the vertical and horizontal chroma information to reduce the required bandwidth as we now have 12bit for YUV420, still 8bit for luminance but only 4bit for chroma instead of 16bit. If you want to learn more about sampling systems you could have a look here.Unable to load certain videos onto my iPad Pro (12.9-inch, 5th generation) running ios 15.4.1. I have a set of mp4 files that refuse to load onto my new iPad Pro. They play fine on my Macbook Pro (14-inch, 2021) running macOS Monterey (12.3.1) using Quicktime. The video stream has the following attributes -.Here are some details you'll want to keep in mind should you decide to go this route: Turning off automatic transcoding is optional. ShotGrid will monitor the sg_uploaded_movie field and automatically transcode supported files. However, if you are doing your own transcoding, the uploaded .mp4 media file will be transcoded to the sg_uploaded_movie_mp4 field instead of the sg_uploaded_movie field.changing the video size. Several rescaling options and algorithms are available. This is usually a lossy process. @item @emph{Pixel format conversion}: is the process of converting the image format and colorspace of the image, for example from planar YUV420P to RGB24 packed. It also handles packing conversion, that is converts from packed layout (all pixels belonging to distinct planes ...Your PS5 will read "When displaying 4K HDR content at 60 Hz, the color format will be YUV422 or YUV420 instead of RGB due to HDMI 2.0 transfer speed limitations. YUV422 is HDR for tv's its an ...Chroma subsampling is the practice of encoding images by implementing less resolution for chroma information than for luma information, taking advantage of the human visual system's lower acuity for color differences than for luminance.. It is used in many video and still image encoding schemes - both analog and digital - including in JPEG encoding.HW YUV420P format (known also as VA_FOURCC_YV12) allows us to directly upload SW decoded frames to dmabuf and use vaapi/dmabuf for WebRTC decoding as VP8 VA-API decoder may produce VA_FOURCC_YV12 frames.Codecs typically will support different pixel formats - YUV is a pixel format space, like RGB - a way of encoding the colour of a pixel. Codecs actually have many different parameters that can be set - to try help usage they generally define profiles which provide values for key parameters to us.Nov 05, 2018 · Use yuv420p. There is no such thing as yuv480p or yuv720p because it is not tied to the video height. yuv420p is a chroma subsampling scheme, and the p stands for planar, not progressive. In ffmpeg yuv420p is called a pixel format. You can use the format filter, or the legacy -pix_fmt option, to set the pixel format. Example: On the GX80, video is usually recorded in yuv420p, but video shot in stills mode (4k Photo Burst) is yuvj420p. My understanding is yuv420p uses color values from 16-235 whereas yuvj420p uses color values from 0-255. Is that the only difference? Which is technically better for grading in post? And why?But for YUV420 we remove half of the vertical and horizontal chroma information to reduce the required bandwidth as we now have 12bit for YUV420, still 8bit for luminance but only 4bit for chroma instead of 16bit. If you want to learn more about sampling systems you could have a look here.What is transcode density? This metric is the number of streams which can be transcoded concurrently while maintaining a specified frames per second (FPS) throughput.You can make your video slideshow more interesting by adding an audio track to it: $ ffmpeg -framerate 1 -pattern_type glob -i '*.jpg' -i freeflow.mp3 \. -shortest -c:v libx264 -r 30 -pix_fmt yuv420p output6.mp4. The above adds a second input file with -i freeflow.mp3 which is an audio file.As you might know, the pixel format yuv420p (without the 'j') stores the color values between values 16 (black) and 239 (white), while the format yuvj420p utilizes the whole range between 0 and 255. Currently, it seems that Blender incorrectly identifies, or treats, the yuvj420p format as if it was a yuv420p format, thus distorting the colors.Each unique Y, U and V value comprises 8 bits, or one byte, of data. Where supported, our color camera models allow YUV transmission in 24-, 16-, and 12-bit per pixel (bpp) format. In 16 and 12 bpp formats, the U and V color values are shared between pixels, which frees bandwidth and may increase frame rate. Known as "chroma subsampling ...YUVJ420P对应的是显示器。. 灰阶. 何谓灰阶?. 通常来说,液晶屏幕上人们肉眼所见的一个点,即一个像素,它是由红、绿、蓝 (RGB)三个子像素组成的。. 每一个子像素,其背后的光源都可以显现出不同的亮度级别。. 而灰阶代表了由最暗到最亮之间不同亮度的层次 ...Dec 17, 2016 · About Kodi. Kodi is a free and open source media player application developed by the XBMC Foundation, a non-profit technology consortium. Kodi is available for multiple operating-systems and hardware platforms, featuring a 10-foot user interface for use with televisions and remote controls. Why does FFmpeg decode a raw YUV420p video?Helpful? Please support me on Patreon: https://www.patreon.com/roelvandepaarWith thanks & praise to God, and with...Hi there, I am currently investigating a Problem with hardware decoding on our hardware (Intel Atom E3930). If I want to show a rtsp stream with pixelformat yuv420p the hardware decoding seems to work correctly (there is a low cpu usage with top)Summary of the bug: HW upload with format conversion for the decoded data doesn't work for iHD QSV & VA-API backends, although that same conversion works fine with the MediaSDK sample application, and with older i965 driver VA-API backend.YV12和I420的区别 一般来说,直接采集到的视频数据是RGB24的格式,RGB24一帧的大小size=width×heigth×3 Bit,RGB32的size=width×heigth×4,如果是I420(即YUV标 yuv. CCIR 601 4:1:1 or 4:2:2. This format is used to store images that have been divided into Y, U, and V color components. In this case, Y corresponds to brightness, and the variables U and V correspond to color information.No matter these, in the end ffprobe always shows it's not anymore in yuvj420p but in yuv420p (or what should be another 8-bit color space format). This results in washed out colors visible on HDR monitors (barely noticeable on older monitors). Similar questions without good answers yet: Lossless compression for video with audiovideoshow . Simple utility for node/io.js to create straightforward video slideshows based on images using ffmpeg, with additional features such as audio, subtitles and fade in/out transitions between slides. That's almost fine for videos that are going to be played back on a desktop (depending on player support etc), but means that the majority of mobile devices will not play the content back. It's therefore essential to convert to YUV420 before publishing. This snippet details how to do that using FFMPEG.In this short article, I follow the main steps of video transcoding and optimization for the web. I share basic tips and examples to consistently automate these processes inhouse using FFmpeg, a…I am trying to populate a libav PIX_FMT_YUV420P AVFrame buffer from a DirectShow MEDIASUBTYPE_YV12 buffer. Performing a straight copy of the bytes results in the colors being off. What is the proper way to perform such a copy? Is the problem a LE/BE problem issue? · May be you have to take care of YV12 specific memory scheme ( alignement with "lost ...Abstract. Video file format standards define only a limited number of mandatory features and leave room for interpretation. Design decisions of device manufacturers and software vendors are thus a fruitful resource for forensic video authentication. This paper explores AVI and MP4-like video streams of mobile phones and digital cameras in detail.It can be very time consuming to re-encode the correct stream. FFmpeg can help with this situation: ffmpeg -i input.webm -c:v copy -c:a flac output.mkv. This command copies the video stream from input.webm into output.mkv and encodes the Vorbis audio stream into a FLAC. The -c flag is really powerful.Laapata-EkThaTiger(2012)-1080pHD Genre:Romance,Thriller StarCast:SalmanKhan,KatrinaKaif MusicDirector:SohailSen Producer:AdityaChopra Director:KabirKhanI've recently downloaded and started using ffmpeg to convert a series of images to a .mp4 movie. It won't open in QuickTime, saying that the file is incompatible. In other threads I've seen that th...Some videos are encoded pretty nice, but some are encoded with bitrate too much over limit. For example, the desired 8M bitrate encoded as 98M. The command line used is. ffmpeg.exe -i input.y4m -c:v hevc_amf -quality quality -usage transcoding -b:v 8M -bufsize 16M -maxrate 12M output.hevc. Tried many other parameters but none of them get ...tl;dr: If you don't want to do the work by hand on the command line, use FastFlix.If you have any issues, reach out on discord or open a github issue.. I talked about this before with my encoding setting for handbrake post, but there is was a fundamental flaw using Handbrake for HDR 10-bit video….it only has had a 8-bit internal pipeline!It and most other GUIs don't yet support dynamic ...YV12 格式. YUV 420SP 类型. NV12 格式. NV21 格式. YUV 420P 和 YUV 420SP 都是基于 Planar 平面格式 进行存储的,先存储所有的 Y 分量后, YUV420P 类型就会先存储所有的 U 分量或者 V 分量,而 YUV420SP 则是按照 UV 或者 VU 的交替顺序进行存储了,具体查看看下图:. YUV420P 的格式 ...The Y's represent luminence ( b&w ) information an U and V represent color information. YUV would be 24 bit per pixel capturing at 4:4:4 ( ie color samples every pixel. UYVY, YUY2 and similar are 4:2:2 or 16bit since you have 8 bits of b&w + 8 bits of one color ( alternativg ) for every pixel. YUY2 and UYUV are probably the best for capturing ...HTTP Live Streaming (also known as HLS) is an HTTP-based media streaming communications protocol implemented by Apple Inc. as part of its QuickTime, Safari, OS X, and iOS software. Client implementations are also available in Microsoft Edge, Firefox and some versions of Google Chrome. Support is widespread in streaming media servers.I am trying to transcode a H264 video from default/YUV420P format to NV12 pixel format. I tried running the sample multi transcode as below. Transcoding says success but when i ffprobe output1.h264, I see YUV420P as pixel format. Request the team for guidance. sample_multi_transcode -i::h264 output.h264 -ec::nv12 -dc::nv12 -o::h264 output1.h264.About Kodi. Kodi is a free and open source media player application developed by the XBMC Foundation, a non-profit technology consortium. Kodi is available for multiple operating-systems and hardware platforms, featuring a 10-foot user interface for use with televisions and remote controls.Why does FFmpeg decode a raw YUV420p video?Helpful? Please support me on Patreon: https://www.patreon.com/roelvandepaarWith thanks & praise to God, and with...Use yuv420p. There is no such thing as yuv480p or yuv720p because it is not tied to the video height. yuv420p is a chroma subsampling scheme, and the p stands for planar, not progressive.In ffmpeg yuv420p is called a pixel format.. You can use the format filter, or the legacy -pix_fmt option, to set the pixel format. Example: ffmpeg -i input.mp4 -vf format=yuv420p output.mp4File list. [Ruimusume-Raws] Xenoblade2 - 05 - 第五話 軛 (くびき) (1920x1080 HEVC-YUV420P).mp4 (4.3 GiB) SuperbiSqu. 1 year 10 months 3 weeks 1 day 21 hours 36 minutes 1 second ago. Someone can seed, please?when i set format to yuv4mpegpipe with codec wrapped_avframe and add pix_fmt=yuv420p to other and save it as export preset it still makes yuv422p file, it works when i manually add pix_fmt=yuv420p everytime i export pi…Speed. With ffmpeg and a decent GPU (like a Quadro P4000) the h265/HEVC encoder finaly gets a good speedboost with up to 90fps when encoding HD movies with the below parameter values and 200fps when using the GPU accelerated h264 encoder. This speed is achieved with a Quadro P4000 from NVidia when encoding 1920×1080 movies with -preset slow. Looking at the Windows case and tracking our setting of full range flags. With HW decoding my WMFMediaDataDecoder is returning media data wrapping a D3D11ShareHandleImage that has the full range flag set.; By the time the data has reached MediaFormatReader::NotifyNewOutput the VideoData contains a GPUVideoImage which doesn't appear to store full range data.Chapter 2: ICC Profile Color Management. As we covered in another article, Color Management for Creators - Web Browser Edition, it is important to embed color profiles in image data to ensure that colors are displayed as the creator intended.Creators must also keep differences between color profile versions in mind, so that colors are displayed properly, regardless of the web browser used.YUV is a color model typically used as part of a color image pipeline. It encodes a color image or video taking human perception into account, allowing reduced bandwidth for chrominance components, compared to a "direct" RGB -representation.HTTP Live Streaming (also known as HLS) is an HTTP-based media streaming communications protocol implemented by Apple Inc. as part of its QuickTime, Safari, OS X, and iOS software. Client implementations are also available in Microsoft Edge, Firefox and some versions of Google Chrome. Support is widespread in streaming media servers.Although Oculus Quest and Go can decode high-resolution video up to 5760x2880 / 30fps, some encoding workflows can result in the export of files that show visible corruption artifacts when played back in Oculus Gallery, especially when encoding in h.264 with long gaps between iFrames.ffmpeg -s 1024x768 -pix_fmt yuv420p -i P0001.yuv P0001-noopt.png Will show the artifacts you see ffmpeg -s 1024x768 -pix_fmt yuv420p -i P0001.yuv -sws_flags +accurate_rnd+full_chroma_int P0001-arfc.png Doesn't produce them, so it looks like the yuv its self is sound, but the accuracy of yuviewer/ffmpeg default is the issue when converting back ...+ x4->params.i_bitdepth = av_pix_fmt_desc_get(avctx->pix_fmt)->comp[0].depth;ffmpeg -pix_fmt yuv420p -s 176x144 -i carphone_qcif.yuv -pix_fmt nv12 carphone_qcif_nv12.yuv the result seems wrong with any yuv player I've used (i remembered to change the setting for qcif 176x144, and NV12 but it did not help). Is there something wrong with ffmpeg convert ?Stream #0.1(eng): Audio: pcm_s16be, 16000 Hz, 1 channels, s16, 256 kb/s [mp4 @ 0x95b0080]track 1: could not find tag, codec not currently supported in container转载:ffmpeg安装第三方编码器(encoder)库,ffmpeg编码h264(完) 2021-10-27 iphone ffmpeg h264 2022-03-01; FFMPEG H264/H265 编码延迟问题 2021-12-31; FFmpeg的H264编码有内存泄漏吗? 2021-10-01; FFmpeg RGB转H264 2021-09-11; FFmpeg简单使用:视频编码---- YUV转H264 2022-03-08 【FFMPEG】【ARM-Linux开发】fmpeg安装第三方编码器(encoder)库 ...this is probably a trivial question but I'm going crazy with this (ffmpeg) framework. Based on this post (sws_scale YUV --> RGB distorted image) (and much more searches) I've written the following code to take a char* pointer to a buffer image (Mono8 or RGB24) and I convert to YUV420P to encode in x264.I have to create a streaming of this images between two PC.Zoom is available in all photo and video modes. Combined with the 48 megapixels sensor, precise sharpening algorithms enable high definition still images, even when using the 6x digital zoom. ANAFI Ai users are now able to see 1 cm details at 75 m. High pixels count also allows cropping 4K videos to 1080p, with barely any loss of quality.solved : using cuda for hwaccel option I have a video.mov, codec hvc1, pix fmt yuvj420p. And I tried to transcode it into mp4(h264) by ffmpeg with hwaccel My command is ffmpeg -y -hwaccel cuvid -c:v hevc_cuvid -i hev…Abstract. Video file format standards define only a limited number of mandatory features and leave room for interpretation. Design decisions of device manufacturers and software vendors are thus a fruitful resource for forensic video authentication. This paper explores AVI and MP4-like video streams of mobile phones and digital cameras in detail. python brute force password cracker scriptnaver newshitman 3 walkthroughcraigslist used rvs for sale by ownermtcnn modelstitch wallpaper iphonezubeyde hanim nikah salonufastest car in gta 5 online 2021pistol vinyl wrapfun piecebutt in germansoneto kahulugan1l